<?xml version="1.0" standalone="no"?>
<!DOCTYPE svg PUBLIC "-//W3C//DTD SVG 1.1//EN" "http://www.w3.org/Graphics/SVG/1.1/DTD/svg11.dtd" >
<svg xmlns="http://www.w3.org/2000/svg">
<metadata>
This is a custom SVG webfont generated by Font Squirrel.
Copyright   : Copyright c 2009 by Roman Shamin  Jovanny Lemonad All rights reserved
Designer    : Roman Shamin
Foundry     : Roman Shamin  Jovanny Lemonad
Foundry URL : httpwwwjovannyru
</metadata>
<defs>
<font id="webfontMI2Bhqsh" horiz-adv-x="696" >
<font-face units-per-em="2048" ascent="1536" descent="-512" />
<missing-glyph horiz-adv-x="512" />
<glyph unicode=" "  horiz-adv-x="512" />
<glyph unicode="&#x09;" horiz-adv-x="512" />
<glyph unicode="&#xa0;" horiz-adv-x="512" />
<glyph unicode="!" horiz-adv-x="413" d="M102 74q0 41 31 70.5t74 29.5t73.5 -29.5t30.5 -70.5t-30.5 -71t-73.5 -30t-74 30t-31 71zM137 958v476h142v-476l-21 -667h-102q-19 450 -19 667z" />
<glyph unicode="&#x22;" horiz-adv-x="569" d="M102 1434h123v-627h-80q-43 197 -43 627zM344 807v627h123q0 -190 -10.5 -347t-22.5 -219l-10 -61h-80z" />
<glyph unicode="#" horiz-adv-x="1382" d="M20 410v125h306l94 364h-264v125h295l106 410h129l-106 -410h378l107 410h129l-107 -410h275v-125h-305l-94 -364h264v-125h-297l-105 -410h-129l105 410h-379l-105 -410h-129l105 410h-273zM455 535h379l94 364h-379z" />
<glyph unicode="$" horiz-adv-x="976" d="M61 111l48 77q147 -88 327 -88h4v580q-354 131 -354 393q0 164 99.5 264.5t254.5 118.5v133h99v-131q88 -4 170 -27.5t118 -44.5l37 -20l-41 -88q-131 57 -278 57h-6v-538q205 -70 290.5 -170.5t85.5 -266.5q0 -156 -102 -262t-274 -121v-163h-99v163q-119 6 -213 40 t-129 65zM227 1083q0 -94 52.5 -151.5t160.5 -100.5v496q-213 -39 -213 -244zM539 109q236 39 235 266q0 88 -53 153.5t-182 116.5v-536z" />
<glyph unicode="%" horiz-adv-x="1724" d="M61 1030q0 201 109 313.5t258 112.5q147 0 253.5 -112.5t106.5 -313.5q0 -199 -108.5 -311.5t-257.5 -112.5q-147 0 -254 111.5t-107 312.5zM195 1030q0 -311 227 -311q233 0 233 311t-227 311q-104 0 -168.5 -75.5t-64.5 -235.5zM244 0l1083 1434h152l-1082 -1434h-153z M936 397q0 199 107.5 312.5t257 113.5t256 -112.5t106.5 -313.5q0 -199 -108.5 -311.5t-258.5 -112.5q-147 0 -253.5 111.5t-106.5 312.5zM1069 397q0 -311 227 -311q233 0 233.5 311.5t-229.5 311.5q-102 0 -166.5 -76t-64.5 -236z" />
<glyph unicode="&#x26;" horiz-adv-x="1275" d="M61 354q0 131 75 223.5t239 213.5q-166 213 -166 354q0 154 98.5 232.5t245.5 78.5q135 0 228 -71.5t93 -196.5q0 -119 -76.5 -207t-254.5 -209q82 -98 196 -213l213 -207q80 154 80 330h105q0 -248 -95 -414l213 -186l-55 -80q-78 41 -225 168q-174 -197 -455 -197 q-221 0 -340 101.5t-119 279.5zM195 356q0 -131 92 -199.5t241 -68.5q225 0 359 162l-250 248q-96 98 -195 211q-127 -96 -187 -173.5t-60 -179.5zM340 1155q0 -123 141 -305q12 10 55 41l54 40q12 9 44 35.5t43 40.5l32 37q20 25 26 43.5l13.5 43t7.5 51.5 q0 76 -57.5 117.5t-145.5 41.5q-213 0 -213 -186z" />
<glyph unicode="'" horiz-adv-x="329" d="M102 1434h125l-6 -627h-112z" />
<glyph unicode="(" horiz-adv-x="532" d="M82 547q0 143 21.5 271t56.5 217t77 164t82.5 120t75.5 76.5t56 46.5l22 12l49 -61q-12 -10 -32.5 -32t-71.5 -99.5t-90 -166.5t-72 -237.5t-33 -310.5t31 -309.5t75 -240.5t88 -164t75 -101l30 -31l-49 -61q-16 8 -43 26.5t-93.5 91t-118.5 165.5t-94 260t-42 364z" />
<glyph unicode=")" horiz-adv-x="532" d="M10 -299q12 10 32.5 31.5t72 99.5t90.5 167t71.5 237.5t32.5 310.5t-30.5 309.5t-74.5 240.5t-88 163.5t-75 101.5l-31 31l49 61q16 -8 43 -26.5t93.5 -91t119 -166t94.5 -260.5t42 -363.5t-40 -362.5t-97.5 -262t-116 -163.5t-99.5 -94.5l-39 -24z" />
<glyph unicode="*" horiz-adv-x="772" d="M61 1094v112q115 0 242 -24l-127 221l96 57q47 -82 101 -221l127 221l98 -57q-51 -88 -141 -197h254v-112q-117 0 -240 24l127 -221l-98 -55q-55 96 -99 219l-129 -219l-96 55q51 94 141 197h-256z" />
<glyph unicode="+" horiz-adv-x="1024" d="M41 553v125h405v407h132v-407h405v-125h-405v-408h-132v408h-405z" />
<glyph unicode="," horiz-adv-x="333" d="M61 74q0 41 31 70.5t74 29.5t73.5 -29.5t30.5 -70.5q6 -53 -16 -121q-14 -45 -47 -89t-60 -65l-24 -22l-49 45q66 66 82 151q-41 4 -68 33t-27 68z" />
<glyph unicode="-" d="M41 471v125h614v-125h-614z" />
<glyph unicode="." horiz-adv-x="331" d="M61 74q0 41 31 70.5t74 29.5q45 0 74.5 -29.5t29.5 -70.5t-29.5 -71t-74.5 -30q-43 0 -74 30t-31 71z" />
<glyph unicode="/" horiz-adv-x="804" d="M0 0l676 1434h129l-676 -1434h-129z" />
<glyph unicode="0" horiz-adv-x="1157" d="M82 715q0 381 124 561t372 180q250 0 373.5 -180t123.5 -561q0 -379 -125 -560.5t-372.5 -181.5t-371.5 180.5t-124 561.5zM231 715q0 -330 86 -473.5t260.5 -143.5t260.5 143.5t86 473.5q0 332 -86 475t-260.5 143t-260.5 -143t-86 -475z" />
<glyph unicode="1" horiz-adv-x="550" d="M41 1202v98l324 134h84v-1434h-136v1288z" />
<glyph unicode="2" horiz-adv-x="954" d="M61 0v125q0 119 71 227.5t172 191.5l203 162q101 79 172 174t71 193q0 133 -60.5 195.5t-226.5 62.5q-78 0 -158 -28.5t-121 -57.5l-43 -28l-51 86q6 6 18.5 16t53.5 36.5t85 47t110.5 37t131.5 16.5q197 0 300.5 -95t103.5 -282q0 -106 -45 -198.5t-112.5 -154.5 t-152.5 -131l-161 -129q-76 -60 -140.5 -149.5t-88.5 -191.5h684v-125h-816z" />
<glyph unicode="3" horiz-adv-x="995" d="M41 98l37 84q16 -10 47 -24.5t127 -39t197 -24.5q342 0 342 309q0 324 -293 324h-222v80l431 502h-621v125h788v-125l-395 -459h8q47 0 95.5 -7t115 -35t115.5 -74t85 -133t36 -202q0 -195 -127 -310.5t-334 -115.5q-119 0 -226.5 32t-156.5 63z" />
<glyph unicode="4" horiz-adv-x="1007" d="M41 403v125l534 930h146l-535 -930h508v426h131v-426h142v-125h-142v-403h-131v403h-653z" />
<glyph unicode="5" horiz-adv-x="978" d="M61 98l43 84q10 -10 31 -24.5t101.5 -39t181 -24.5t174.5 37t110.5 94.5t53 112.5t16.5 108q0 340 -295 340q-78 0 -147.5 -21.5t-100.5 -43.5l-28 -21l-82 17l57 717h723v-125h-604l-37 -457q86 55 227 55q182 0 307.5 -119.5t125.5 -332.5q0 -201 -136.5 -341.5 t-339.5 -140.5q-119 0 -214 32t-130 63z" />
<glyph unicode="6" horiz-adv-x="1017" d="M82 707q0 199 44 349t120 234t164 125t186 41q78 0 152.5 -28.5t111.5 -57.5l35 -29l-47 -75q-88 76 -227 75q-213 0 -313.5 -159.5t-100.5 -444.5v-47h6q31 72 120 136.5t214 64.5q184 0 296.5 -120t112.5 -329q0 -211 -127 -340t-309 -129q-94 0 -166.5 27t-119 80 t-78 116.5t-47 152.5t-21.5 171.5t-6 186.5zM217 485q18 -182 86 -290.5t217 -108.5q125 0 215 92t90 264q0 150 -69.5 241t-184.5 91q-90 0 -160.5 -37t-109.5 -91t-57.5 -93t-26.5 -68z" />
<glyph unicode="7" horiz-adv-x="931" d="M41 1309v125h850v-125l-422 -1309h-143l422 1309h-707z" />
<glyph unicode="8" horiz-adv-x="1054" d="M72 342q0 88 36.5 166t95 130t102.5 82t85 48q-129 74 -190.5 156t-61.5 200q0 139 100.5 235.5t286.5 96.5q182 0 283.5 -94t101.5 -244q0 -63 -26.5 -122.5t-69.5 -103.5t-81 -72.5t-75 -49.5q172 -92 248 -185t76 -233q0 -174 -121 -276.5t-338 -102.5t-334.5 99.5 t-117.5 269.5zM201 358q0 -119 76.5 -192.5t248.5 -73.5q168 0 246 69.5t78 190.5q0 113 -70.5 188.5t-253.5 157.5l-24 13q-33 -12 -77 -39t-98.5 -71t-90 -108.5t-35.5 -134.5zM270 1124q0 -100 68 -165.5t207 -129.5l2 -2h4q84 33 158.5 107t74.5 178q0 113 -69.5 170 t-188.5 57q-111 0 -183.5 -52t-72.5 -163z" />
<glyph unicode="9" horiz-adv-x="1017" d="M61 987q0 211 127 340t310 129q94 0 166.5 -26.5t118.5 -80t78 -117t47.5 -152.5t21.5 -171t6 -186q0 -199 -44 -349.5t-120 -234.5t-164 -125t-186 -41q-78 0 -152.5 29t-109.5 57l-37 29l47 76q88 -76 227 -76q213 0 313.5 160t100.5 444v47h-6q-31 -72 -120 -136 t-214 -64q-184 0 -297 119.5t-113 328.5zM193 987q0 -150 69.5 -241t183.5 -91q90 0 161 37t110 91.5t57.5 93t26.5 67.5q-18 182 -86 290.5t-217 108.5q-125 0 -215 -92t-90 -264z" />
<glyph unicode=":" horiz-adv-x="331" d="M61 74q0 41 31 70.5t74 29.5q45 0 74.5 -29.5t29.5 -70.5t-29.5 -71t-74.5 -30q-43 0 -74 30t-31 71zM61 879q0 41 31 70.5t74 29.5q45 0 74.5 -29.5t29.5 -70.5t-29.5 -71t-74.5 -30q-43 0 -74 30t-31 71z" />
<glyph unicode=";" horiz-adv-x="333" d="M61 74q0 41 31 70.5t74 29.5t73.5 -29.5t30.5 -70.5q6 -53 -16 -121q-14 -45 -47 -89t-60 -65l-24 -22l-49 45q66 66 82 151q-41 4 -68 33t-27 68zM61 879q0 41 31 70.5t74 29.5q45 0 74.5 -29.5t29.5 -70.5t-29.5 -71t-74.5 -30q-43 0 -74 30t-31 71z" />
<glyph unicode="&#x3c;" horiz-adv-x="1044" d="M41 481v103l963 495v-135l-799 -412l799 -411v-135z" />
<glyph unicode="=" horiz-adv-x="1024" d="M41 332v123h942v-123h-942zM41 772v125h942v-125h-942z" />
<glyph unicode="&#x3e;" horiz-adv-x="1044" d="M41 -14v135l799 411l-799 412v135l963 -495v-103z" />
<glyph unicode="?" horiz-adv-x="884" d="M20 1303q6 6 18.5 16t53.5 36.5t85 47t110.5 37t132.5 16.5q197 0 310.5 -108.5t113.5 -298.5q0 -84 -22.5 -152t-58.5 -113t-80 -85l-88 -77q-44 -38 -80 -82t-58.5 -107.5t-22.5 -141.5h-110q0 111 27.5 194.5t69.5 130t91 93.5l91 85q42 38 69.5 102.5t27.5 145.5 q0 137 -79.5 213t-227.5 76q-78 0 -157.5 -28.5t-120.5 -57.5l-43 -28zM274 74q0 41 31 70.5t74 29.5t73.5 -29.5t30.5 -70.5t-30.5 -71t-73.5 -30t-74 30t-31 71z" />
<glyph unicode="@" horiz-adv-x="1748" d="M61 690q0 274 132.5 485t331 315.5t421.5 104.5q348 0 545 -190.5t197 -497.5q0 -291 -147.5 -490.5t-301.5 -199.5q-27 0 -50.5 8t-50 31t-40 73t-8.5 124l-11 -26q-6 -15 -31.5 -56t-56 -72t-87 -56.5t-120.5 -25.5q-131 0 -225 107.5t-94 314.5q0 233 140 413.5 t345 180.5q131 0 219 -72l7 47h120l-88 -716q-23 -162 47 -162q37 0 88.5 30.5t107.5 92t95 181.5t39 273q0 279 -180 432.5t-459 153.5q-123 0 -252 -49t-244.5 -142.5t-189.5 -253t-74 -358.5q0 -190 63.5 -337.5t169 -231.5t224.5 -126t246 -42q172 0 325.5 69.5 t247.5 184.5l60 -53q-115 -152 -284 -230t-349 -78q-168 0 -315.5 54.5t-263 157t-182.5 266t-67 366.5zM598 649q0 -319 205 -319q61 0 116.5 42t91.5 101t61.5 117.5t37.5 101.5l10 41l37 326q-72 68 -207 67q-158 0 -255 -143.5t-97 -333.5z" />
<glyph unicode="A" horiz-adv-x="1165" d="M41 0l455 1434h131l497 -1434h-139l-149 434h-527l-137 -434h-131zM346 551h449l-234 676z" />
<glyph unicode="B" horiz-adv-x="1142" d="M102 0v1434h418q475 0 475 -355q0 -80 -24.5 -141t-59 -91t-69.5 -48.5t-60 -20.5l-24 -4v-6q12 -2 32.5 -6t72.5 -26.5t92 -56.5t73 -104.5t33 -160.5q0 -205 -115 -309.5t-381 -104.5h-463zM231 125h334q70 0 115 4t95 20.5t79 47t47.5 85t18.5 132.5 q0 145 -89.5 211.5t-238.5 66.5h-361v-567zM231 817h318q135 0 224 68.5t89 193.5t-83 178.5t-259 53.5h-289v-494z" />
<glyph unicode="C" horiz-adv-x="1142" d="M82 702q0 172 36 306.5t92 217.5t134 136t156 73.5t162 20.5q104 0 206.5 -31.5t151.5 -64.5l51 -31l-41 -80q-147 82 -323 82q-479 0 -480 -629q0 -604 484 -604q96 0 183 23.5t126 46.5l41 25l41 -80q-6 -6 -18.5 -15.5t-53.5 -33t-88 -42t-122 -34t-154 -15.5 q-115 0 -214.5 37t-185.5 117t-135 227t-49 348z" />
<glyph unicode="D" horiz-adv-x="1171" d="M102 0v1434h406q258 0 420 -182.5t162 -536.5q0 -350 -162 -532.5t-420 -182.5h-406zM233 125h275q186 0 310 144.5t124 445.5q0 303 -124 448.5t-310 145.5h-275v-1184z" />
<glyph unicode="E" horiz-adv-x="1007" d="M102 0v1434h836v-125h-707v-506h603v-125h-603v-553h715v-125h-844z" />
<glyph unicode="F" horiz-adv-x="978" d="M102 0v1434h836v-125h-707v-508h600v-125h-600v-676h-129z" />
<glyph unicode="G" horiz-adv-x="1204" d="M82 702q0 203 52 355.5t140 235.5t185.5 123t202 40t207 -31.5t151.5 -64.5l51 -31l-39 -80q-150 82 -325 82q-215 0 -346.5 -153.5t-131.5 -475.5q0 -604 471 -604q135 0 271 74v561h131v-627q-16 -14 -50 -36.5t-146.5 -59.5t-239.5 -37q-115 0 -214.5 37t-185.5 117 t-135 227t-49 348z" />
<glyph unicode="H" horiz-adv-x="1218" d="M102 0v1434h129v-633h754v633h131v-1434h-131v676h-754v-676h-129z" />
<glyph unicode="I" horiz-adv-x="333" d="M102 0v1434h129v-1434h-129z" />
<glyph unicode="J" horiz-adv-x="462" d="M0 68q117 33 174 115.5t57 265.5v985h129v-985q0 -57 -6 -109.5t-27.5 -120t-56 -118t-101.5 -87.5t-155 -41z" />
<glyph unicode="K" horiz-adv-x="1079" d="M102 0v1434h129v-723l609 723h166l-537 -637l610 -797h-164l-532 694l-152 -178v-516h-129z" />
<glyph unicode="L" horiz-adv-x="987" d="M102 0v1434h129v-1309h715v-125h-844z" />
<glyph unicode="M" horiz-adv-x="1495" d="M102 0v1434h129l531 -1012l500 1012h131v-1434h-131v1145l-439 -875h-118l-474 891v-1161h-129z" />
<glyph unicode="N" horiz-adv-x="1245" d="M102 0v1434h146l766 -1225v1225h129v-1434h-146l-766 1225v-1225h-129z" />
<glyph unicode="O" horiz-adv-x="1325" d="M82 714.5q0 366.5 160.5 554t421 187.5t420 -186.5t159.5 -555t-159.5 -555t-420 -186.5t-421 187.5t-160.5 554zM229 714.5q0 -317.5 123 -467t311.5 -149.5t311.5 149.5t123 467t-123 467t-311.5 149.5t-311.5 -149.5t-123 -467z" />
<glyph unicode="P" horiz-adv-x="1091" d="M102 0v1434h375q553 0 553 -418q0 -209 -139 -319.5t-414 -110.5h-239v-586h-136zM238 711h239q90 0 154.5 10t128 41t96.5 94.5t33 159.5q0 94 -34 156.5t-99.5 90t-128 37t-150.5 9.5h-239v-598z" />
<glyph unicode="Q" horiz-adv-x="1339" d="M82 714.5q0 366.5 160.5 554t421 187.5t420 -186.5t159.5 -554.5q0 -295 -105.5 -474.5t-287.5 -238.5l407 -260l-38 -61q-160 41 -555 292q-260 0 -421 187.5t-161 554zM229 714.5q0 -317.5 123 -467t312 -149.5q186 0 309 149.5t123 467t-123 467t-309 149.5 q-188 0 -311.5 -149.5t-123.5 -467z" />
<glyph unicode="R" horiz-adv-x="1091" d="M102 0v1434h377q268 0 409.5 -104.5t141.5 -313.5q0 -315 -309 -402l309 -614h-145l-297 590q-70 -4 -109 -4h-239v-586h-138zM240 711h239q70 0 123 5t109.5 24.5t93.5 51t60.5 89t23.5 135.5q0 94 -34 156.5t-98.5 90t-127 37t-150.5 9.5h-239v-598z" />
<glyph unicode="S" horiz-adv-x="1091" d="M61 106l41 87q195 -94 402 -95q383 0 383 273q0 106 -82 168.5t-268 124.5l-135.5 47t-119 55t-105.5 75t-63.5 97t-27.5 133q0 182 128 283.5t337 101.5q106 0 212.5 -23.5t160.5 -46.5l53 -22l-29 -88q-166 55 -354 55q-367 0 -367 -252q0 -59 24.5 -103t77 -75 t99.5 -49t125 -43q14 -4 20 -6q240 -80 348.5 -174t108.5 -271q0 -180 -129 -282.5t-342 -102.5q-152 0 -276.5 34t-171.5 67z" />
<glyph unicode="T" horiz-adv-x="1067" d="M41 1309v125h985v-125h-428v-1309h-129v1309h-428z" />
<glyph unicode="U" horiz-adv-x="1196" d="M102 487v947h129v-947q0 -195 96.5 -292t270.5 -97t269.5 97.5t95.5 291.5v947h131v-947q0 -117 -32 -209t-82 -148t-116.5 -92t-132 -50.5t-133.5 -14.5q-86 0 -167 25t-157.5 79t-124 160.5t-47.5 249.5z" />
<glyph unicode="V" horiz-adv-x="1196" d="M0 1434h139l459 -1221l459 1221h139l-539 -1434h-118z" />
<glyph unicode="W" horiz-adv-x="1814" d="M0 1434h137l359 -1180l338 1044h147l338 -1044l358 1180h138l-435 -1434h-120l-353 1087l-352 -1087h-121z" />
<glyph unicode="X" horiz-adv-x="1126" d="M0 0l475 723l-463 711h158l383 -588h20l383 588h158l-463 -711l475 -723h-157l-406 616l-405 -616h-158z" />
<glyph unicode="Y" horiz-adv-x="1198" d="M0 1434h145l467 -750l441 750h145l-520 -881v-553h-131v547z" />
<glyph unicode="Z" horiz-adv-x="1054" d="M41 0v125l807 1184h-778v125h936v-125l-807 -1184h815v-125h-973z" />
<glyph unicode="[" horiz-adv-x="534" d="M102 -342v1776h422v-119h-293v-1538h293v-119h-422z" />
<glyph unicode="\" horiz-adv-x="804" d="M0 1434h129l676 -1434h-129z" />
<glyph unicode="]" horiz-adv-x="534" d="M10 -223h293v1538h-293v119h422v-1776h-422v119z" />
<glyph unicode="^" horiz-adv-x="716" d="M0 942l307 492h103l307 -492h-135l-224 358l-223 -358h-135z" />
<glyph unicode="_" horiz-adv-x="614" d="M0 0h614v-125h-614v125z" />
<glyph unicode="`" horiz-adv-x="452" d="M0 1434h178l275 -410h-125z" />
<glyph unicode="a" horiz-adv-x="907" d="M72 233q0 94 50 160t189.5 111t368.5 47v12q0 174 -53.5 236.5t-190.5 62.5q-57 0 -126.5 -13t-110.5 -28l-41 -14l-27 76q158 84 336 84q172 0 255 -89.5t83 -314.5v-563h-100q-12 74 -19 145q-152 -156 -330 -155q-129 0 -206.5 65t-77.5 178zM197 242q0 -76 47 -112 t121 -36q168 0 315 178v179q-240 -2 -361.5 -49t-121.5 -160z" />
<glyph unicode="b" horiz-adv-x="933" d="M102 72v1362h125v-521q86 66 228 66q184 0 300.5 -115.5t116.5 -357.5q0 -236 -119.5 -382.5t-320.5 -146.5q-88 0 -170 24t-121 48zM227 123q86 -35 181 -35q158 0 249 109.5t91 308.5q0 182 -85 274t-231 92q-121 0 -205 -79v-670z" />
<glyph unicode="c" horiz-adv-x="811" d="M61 469q0 229 115 369.5t285 140.5q80 0 151.5 -20.5t104.5 -40.5l33 -23l-27 -76q-102 53 -231 53q-133 0 -220.5 -113.5t-87.5 -289.5q0 -172 87 -279.5t223 -107.5q66 0 128 14.5t91 26.5l30 14l27 -76q-12 -10 -35.5 -23t-103.5 -37t-168 -24q-170 0 -286 132.5 t-116 359.5z" />
<glyph unicode="d" horiz-adv-x="917" d="M61 438q0 539 428 539q113 0 201 -70v492h125v-1399h-100q-12 74 -19 143q-139 -168 -301 -168q-90 0 -157.5 38t-104.5 105.5t-54.5 146.5t-17.5 173zM193 438q0 -96 18 -173t68.5 -131t126.5 -54q135 0 284 194v527q-84 74 -192 73q-68 0 -114 -13t-94 -54 t-72.5 -134.5t-24.5 -234.5z" />
<glyph unicode="e" horiz-adv-x="876" d="M61 467q0 231 124 371.5t292 140.5q96 0 166 -44t105.5 -121t51 -160t15.5 -179l-629 -10q0 -186 98.5 -282.5t227.5 -96.5q72 0 137.5 12.5t93.5 24.5l29 10l27 -72q-125 -84 -310 -84q-193 0 -310.5 130.5t-117.5 359.5zM190 545q166 27 500 35q-4 125 -59.5 211 t-153.5 86q-102 0 -185.5 -90t-101.5 -242z" />
<glyph unicode="f" horiz-adv-x="618" d="M41 846v108h172v181q0 172 65.5 246.5t194.5 74.5q47 0 99.5 -19.5t78.5 -37.5l29 -19l-27 -71q-96 45 -174 45q-143 0 -143 -219v-181h244v-108q-139 0 -244 14v-860h-123v846h-172z" />
<glyph unicode="g" horiz-adv-x="890" d="M41 -158q0 135 113 248q-51 35 -52 109q0 80 88 168q-88 90 -88 251q0 156 98.5 252.5t245.5 96.5q102 0 183 -43q70 31 241 30v-96l-170 6l-2 -2q43 -37 72 -112q20 -55 21 -132q0 -152 -97.5 -249t-247.5 -97q-111 0 -190 45q-16 -18 -29.5 -43.5t-18.5 -52t13.5 -45 t61.5 -18.5h247q47 0 95.5 -10.5t102.5 -37t89 -86t35 -141.5q0 -160 -119 -237.5t-309 -77.5q-193 0 -288 73.5t-95 200.5zM160 -137q0 -51 17.5 -88t43 -56.5t64.5 -31t71.5 -14.5t75.5 -3q123 0 212 48.5t89 164.5q0 82 -60.5 128t-142.5 46h-247q-31 0 -43 2 q-8 -6 -21.5 -20t-36 -64.5t-22.5 -111.5zM217 618q0 -246 229 -245q106 0 167 67.5t61 177.5q0 248 -228 248q-109 0 -169 -67.5t-60 -180.5z" />
<glyph unicode="h" horiz-adv-x="925" d="M102 0v1434h125v-607q147 152 312 152q162 0 223 -91t61 -259v-629h-125v629q0 129 -34.5 187t-135.5 58q-150 0 -301 -180v-694h-125z" />
<glyph unicode="i" horiz-adv-x="354" d="M102 1186q0 29 22.5 50t53.5 21t52.5 -21.5t21.5 -49.5q0 -31 -21.5 -51.5t-52.5 -20.5t-53.5 20.5t-22.5 51.5zM115 0v954h125v-954h-125z" />
<glyph unicode="j" horiz-adv-x="399" d="M-41 -395q109 31 155 116.5t46 278.5v954h125v-954q0 -66 -2 -110t-19.5 -117.5t-47.5 -119.5t-92.5 -84t-150.5 -42zM147 1186q0 29 21.5 50t54.5 21q31 0 52.5 -21.5t21.5 -49.5q0 -31 -21.5 -51.5t-52.5 -20.5q-33 0 -54.5 20.5t-21.5 51.5z" />
<glyph unicode="k" horiz-adv-x="854" d="M102 0v1434h125v-930l408 450h153l-362 -399l408 -555h-152l-338 463l-117 -129v-334h-125z" />
<glyph unicode="l" horiz-adv-x="376" d="M104 436v25v973h125v-973q0 -141 3.5 -198.5t21.5 -119t61 -90.5l-14 -76q-47 6 -83 26t-56.5 58.5t-32.5 73.5t-17.5 97.5t-6.5 98t-1 105.5z" />
<glyph unicode="m" horiz-adv-x="1431" d="M102 0v954h101q12 -70 18 -139q115 164 275 164q203 0 256 -195q125 195 295 195q164 0 223 -107.5t59 -322.5v-549h-125v549q0 154 -34.5 239.5t-131.5 85.5q-76 0 -132 -46t-128 -144v-684h-125v588q0 287 -166 286q-76 0 -133 -47t-127 -143v-684h-125z" />
<glyph unicode="n" horiz-adv-x="937" d="M102 0v954h101q12 -72 18 -143q139 168 303 168q311 0 312 -430v-549h-125v549q0 143 -48.5 234t-146.5 91q-141 0 -289 -192v-682h-125z" />
<glyph unicode="o" horiz-adv-x="976" d="M61 477.5q0 235.5 127 368.5t304 133q174 0 298.5 -133t124.5 -369q0 -233 -126.5 -366.5t-303.5 -133.5q-174 0 -299 132.5t-125 368zM190 477q0 -193 82 -292t213 -99q135 0 218 99.5t83 291.5q0 190 -84 291.5t-210 101.5q-123 0 -212.5 -102.5t-89.5 -290.5z" />
<glyph unicode="p" horiz-adv-x="917" d="M102 -444v1398h101q12 -74 18 -143q139 168 301 168q90 0 158 -38t104.5 -105.5t54 -146.5t17.5 -173q0 -539 -428 -539q-113 0 -201 70v-491h-125zM227 154q84 -74 193 -74q68 0 114 13t94 54t72.5 134.5t24.5 234.5q0 96 -18.5 173t-68.5 131t-126 54q-135 0 -285 -194 v-526z" />
<glyph unicode="q" horiz-adv-x="933" d="M61 451q0 236 120 382t321 146q88 0 170 -23.5t121 -46.5l38 -24v-1329h-124v487q-86 -66 -228 -66q-184 0 -301 116t-117 358zM186 451q0 -182 85 -274.5t231 -92.5q121 0 205 80v670q-86 35 -181 34q-158 0 -249 -109t-91 -308z" />
<glyph unicode="r" horiz-adv-x="651" d="M102 0v954h101q25 -154 24 -231v-21q14 47 41 86q115 178 363 179v-133q-98 0 -176 -29t-119 -70t-67.5 -82t-35.5 -69l-6 -29v-555h-125z" />
<glyph unicode="s" horiz-adv-x="806" d="M61 68l31 67q133 -49 273 -49q260 0 260 176q0 72 -52.5 106.5t-181.5 67.5q-72 18 -119 35.5t-100 49.5t-79.5 79t-26.5 111q0 135 97 201.5t249 66.5q72 0 145.5 -16.5t112.5 -32.5l39 -15l-25 -69q-117 29 -246 28q-252 0 -252 -157q0 -78 111 -119q25 -10 121 -39 q94 -29 137 -46t96.5 -52t73.5 -84t20 -123q0 -131 -98 -204t-246 -73q-102 0 -187 23t-120 45z" />
<glyph unicode="t" horiz-adv-x="702" d="M41 846v108h172v105q0 57 8 115.5t17 87.5l8 30h92v-338h242v-108q-141 0 -242 14v-561q0 -127 37 -173t104 -46q35 0 79 11t71 24l26 10l27 -72q-106 -76 -213 -76q-256 0 -256 322v547h-172z" />
<glyph unicode="u" horiz-adv-x="935" d="M102 410v544h123v-544q0 -143 48.5 -235.5t146.5 -92.5q141 0 289 192v680h125v-954h-101q-10 74 -18 145q-139 -168 -303 -168q-310 1 -310 433z" />
<glyph unicode="v" horiz-adv-x="835" d="M0 954h127l299 -751l283 751h127l-359 -954h-104z" />
<glyph unicode="w" horiz-adv-x="1277" d="M0 954h121l227 -733l234 643h114l234 -643l227 733h121l-295 -954h-100l-244 670l-244 -670h-100z" />
<glyph unicode="x" horiz-adv-x="815" d="M0 0l326 494l-303 460h141l235 -356h17l235 356h142l-304 -460l326 -494h-145l-262 395l-263 -395h-145z" />
<glyph unicode="y" horiz-adv-x="835" d="M0 954h135l301 -876l271 876h129l-340 -1106q-45 -147 -116 -223t-181 -76q-104 0 -176 76l43 70q68 -39 124 -39q119 0 185 223l35 121h-84z" />
<glyph unicode="z" horiz-adv-x="774" d="M41 0v111l537 731h-519v112h668v-110l-537 -731h543v-113h-692z" />
<glyph unicode="{" horiz-adv-x="612" d="M61 508v90q68 0 120 46t52 153v315q0 322 256 322h113v-103h-98q-68 0 -105 -46t-37 -173v-289q0 -68 -14 -121t-33.5 -79.5t-39 -44t-33.5 -21.5l-15 -4l16 -5q9 -3 31.5 -20.5t41 -44t32.5 -80t14 -120.5v-289q0 -127 37 -173t105 -46h98v-103h-113q-256 0 -256 322 v315q0 106 -52 152.5t-120 46.5z" />
<glyph unicode="|" horiz-adv-x="333" d="M102 -143v1720h129v-1720h-129z" />
<glyph unicode="}" horiz-adv-x="612" d="M10 -225h99q68 0 104.5 46t36.5 173v289q0 68 14.5 121t33.5 79.5t38.5 44t34.5 21.5l14 4l-15 5q-9 3 -32 20.5t-41 44t-32.5 80t-14.5 120.5v289q0 127 -37 173t-104 46h-99v103h113q256 0 256 -322v-315q0 -106 52 -152.5t120 -46.5v-90q-68 0 -120 -46t-52 -153v-315 q0 -322 -256 -322h-113v103z" />
<glyph unicode="~" horiz-adv-x="1058" d="M41 498q84 160 254 159q102 0 260 -67q139 -61 229 -62q100 0 168 82l66 -43q-84 -160 -254 -159q-102 0 -260 67q-139 61 -230 62q-100 0 -168 -82z" />
<glyph unicode="&#xa9;" horiz-adv-x="1568" d="M61 715q0 233 103.5 405t265.5 254t354 82q311 0 517 -196.5t206 -544.5q0 -340 -211 -541t-512 -201q-297 0 -510 200t-213 542zM152 715q0 -324 181 -498t451 -174q172 0 312.5 71.5t229.5 227.5t89 373q0 164 -53 295t-143.5 210.5t-202 121.5t-232 42t-232.5 -42 t-202 -121.5t-144 -210.5t-54 -295zM414 698q0 135 35.5 236.5t96 155t125 78t132.5 24.5q66 0 131 -23.5t98 -46.5l33 -24l-35 -62q-92 55 -205 56q-139 0 -216 -89.5t-77 -304.5q0 -203 75 -289.5t222 -86.5q61 0 113.5 15t73.5 32l22 16l45 -63q-10 -10 -31.5 -28 t-93 -45.5t-153.5 -27.5q-160 0 -275.5 115.5t-115.5 361.5z" />
<glyph unicode="&#xad;" d="M41 471v125h614v-125h-614z" />
<glyph unicode="&#xae;" horiz-adv-x="1568" d="M61 715q0 233 103.5 405t265.5 254t354 82q311 0 517 -196.5t206 -544.5q0 -340 -211 -541t-512 -201q-297 0 -510 200t-213 542zM152 715q0 -324 181 -498t451 -174q172 0 312.5 71.5t229.5 227.5t89 373q0 164 -53 295t-143.5 210.5t-202 121.5t-232 42t-232.5 -42 t-202 -121.5t-144 -210.5t-54 -295zM510 242v934h231q358 0 359 -271q0 -207 -201 -262l201 -401h-111l-194 385q-16 -2 -54 -2h-127v-383h-104zM614 719h117q266 0 266 186q0 57 -21.5 94t-63.5 53.5t-83 22.5t-98 6h-117v-362z" />
<glyph unicode="&#x2000;" horiz-adv-x="796" />
<glyph unicode="&#x2001;" horiz-adv-x="1595" />
<glyph unicode="&#x2002;" horiz-adv-x="796" />
<glyph unicode="&#x2003;" horiz-adv-x="1595" />
<glyph unicode="&#x2004;" horiz-adv-x="530" />
<glyph unicode="&#x2005;" horiz-adv-x="397" />
<glyph unicode="&#x2006;" horiz-adv-x="264" />
<glyph unicode="&#x2007;" horiz-adv-x="264" />
<glyph unicode="&#x2008;" horiz-adv-x="198" />
<glyph unicode="&#x2009;" horiz-adv-x="317" />
<glyph unicode="&#x200a;" horiz-adv-x="88" />
<glyph unicode="&#x2010;" d="M41 471v125h614v-125h-614z" />
<glyph unicode="&#x2011;" d="M41 471v125h614v-125h-614z" />
<glyph unicode="&#x2012;" d="M41 471v125h614v-125h-614z" />
<glyph unicode="&#x2013;" horiz-adv-x="1122" d="M41 471v125h1040v-125h-1040z" />
<glyph unicode="&#x2014;" horiz-adv-x="1372" d="M41 471v125h1290v-125h-1290z" />
<glyph unicode="&#x2018;" horiz-adv-x="327" d="M102 807q0 209 13.5 365.5t27.5 207.5l13 54h69v-627h-123z" />
<glyph unicode="&#x2019;" horiz-adv-x="333" d="M102 1434h129v-627h-79q-50 156 -50 627z" />
<glyph unicode="&#x201c;" horiz-adv-x="571" d="M102 807q0 209 13.5 365.5t27.5 207.5l13 54h69v-627h-123zM344 807v627h125v-627h-125z" />
<glyph unicode="&#x201d;" horiz-adv-x="565" d="M102 1434h129v-627h-79q-50 156 -50 627zM344 807v627h119v-627h-119z" />
<glyph unicode="&#x2022;" horiz-adv-x="655" d="M102 716.5q0 100.5 62.5 163t163 62.5t163 -62.5t62.5 -163t-62.5 -162.5t-163 -62t-163 62t-62.5 162.5z" />
<glyph unicode="&#x2026;" horiz-adv-x="1159" d="M61 74q0 41 31 70.5t74 29.5q45 0 74.5 -29.5t29.5 -70.5t-29.5 -71t-74.5 -30q-43 0 -74 30t-31 71zM475 74q0 41 31 70.5t74 29.5q45 0 74.5 -29.5t29.5 -70.5t-29.5 -71t-74.5 -30q-43 0 -74 30t-31 71zM889 74q0 41 30.5 70.5t73.5 29.5q45 0 75 -29.5t30 -70.5 t-30 -71t-75 -30q-43 0 -73.5 30t-30.5 71z" />
<glyph unicode="&#x202f;" horiz-adv-x="317" />
<glyph unicode="&#x205f;" horiz-adv-x="397" />
<glyph unicode="&#x20ac;" horiz-adv-x="1110" d="M0 535l29 98h151v69v78h-180l29 99h159q18 162 69.5 279.5t123.5 180t143.5 90t149.5 27.5q104 0 188 -31.5t117 -64.5l31 -31l-49 -74q-92 78 -242 78q-332 0 -385 -454h592l-29 -99h-569q-2 -25 -2 -78v-69h542l-28 -98h-506q25 -231 121 -334t268 -103 q82 0 154.5 22.5t105.5 47.5l31 22l55 -77q-4 -6 -12 -15.5t-41 -33t-72 -42t-108.5 -34t-149.5 -15.5q-195 0 -331 132.5t-167 429.5h-188z" />
<glyph unicode="&#x2122;" horiz-adv-x="1204" d="M0 1350v84h479v-84h-192v-521h-97v521h-190zM537 829v605h94l225 -408l213 408h94v-605h-94v418l-172 -325h-78l-188 331v-424h-94z" />
<glyph unicode="&#xe000;" horiz-adv-x="955" d="M0 955h955v-955h-955v955z" />
<glyph unicode="&#xfb01;" horiz-adv-x="972" d="M720 1186q0 29 22.5 50t53.5 21t52.5 -21.5t21.5 -49.5q0 -31 -21.5 -51.5t-52.5 -20.5t-53.5 20.5t-22.5 51.5zM733 0v954h125v-954h-125zM41 846v108h172v181q0 172 65.5 246.5t194.5 74.5q47 0 99.5 -19.5t78.5 -37.5l29 -19l-27 -71q-96 45 -174 45q-143 0 -143 -219 v-181h244v-108q-139 0 -244 14v-860h-123v846h-172z" />
<glyph unicode="&#xfb02;" horiz-adv-x="995" d="M722 436v25v973h125v-973q0 -141 3.5 -198.5t21.5 -119t61 -90.5l-14 -76q-47 6 -83 26t-56.5 58.5t-32.5 73.5t-17.5 97.5t-6.5 98t-1 105.5zM41 846v108h172v181q0 172 65.5 246.5t194.5 74.5q47 0 99.5 -19.5t78.5 -37.5l29 -19l-27 -71q-96 45 -174 45 q-143 0 -143 -219v-181h244v-108q-139 0 -244 14v-860h-123v846h-172z" />
<glyph unicode="&#xfb03;" horiz-adv-x="1591" d="M1339 1186q0 29 22.5 50t53.5 21t52.5 -21.5t21.5 -49.5q0 -31 -21.5 -51.5t-52.5 -20.5t-53.5 20.5t-22.5 51.5zM1352 0v954h125v-954h-125zM659 846v108h172v181q0 172 65.5 246.5t194.5 74.5q47 0 99.5 -19.5t78.5 -37.5l29 -19l-27 -71q-96 45 -174 45 q-143 0 -143 -219v-181h244v-108q-139 0 -244 14v-860h-123v846h-172zM41 846v108h172v181q0 172 65.5 246.5t194.5 74.5q47 0 99.5 -19.5t78.5 -37.5l29 -19l-27 -71q-96 45 -174 45q-143 0 -143 -219v-181h244v-108q-139 0 -244 14v-860h-123v846h-172z" />
<glyph unicode="&#xfb04;" horiz-adv-x="1613" d="M1341 436v25v973h125v-973q0 -141 3.5 -198.5t21.5 -119t61 -90.5l-14 -76q-47 6 -83 26t-56.5 58.5t-32.5 73.5t-17.5 97.5t-6.5 98t-1 105.5zM659 846v108h172v181q0 172 65.5 246.5t194.5 74.5q47 0 99.5 -19.5t78.5 -37.5l29 -19l-27 -71q-96 45 -174 45 q-143 0 -143 -219v-181h244v-108q-139 0 -244 14v-860h-123v846h-172zM41 846v108h172v181q0 172 65.5 246.5t194.5 74.5q47 0 99.5 -19.5t78.5 -37.5l29 -19l-27 -71q-96 45 -174 45q-143 0 -143 -219v-181h244v-108q-139 0 -244 14v-860h-123v846h-172z" />
</font>
</defs>
</svg>
