<?xml version="1.0" standalone="no"?>
<!DOCTYPE svg PUBLIC "-//W3C//DTD SVG 1.1//EN" "http://www.w3.org/Graphics/SVG/1.1/DTD/svg11.dtd" >
<svg xmlns="http://www.w3.org/2000/svg">
<metadata>
This is a custom SVG webfont generated by Font Squirrel.
Copyright   : Copyright c 2009 by Roman Shamin  Jovanny Lemonad All rights reserved
Designer    : Roman Shamin
Foundry     : Roman Shamin  Jovanny Lemonad
Foundry URL : httpwwwjovannyru
</metadata>
<defs>
<font id="webfont7cLYeKbS" horiz-adv-x="696" >
<font-face units-per-em="2048" ascent="1536" descent="-512" />
<missing-glyph horiz-adv-x="512" />
<glyph unicode=" "  horiz-adv-x="512" />
<glyph unicode="&#x09;" horiz-adv-x="512" />
<glyph unicode="&#xa0;" horiz-adv-x="512" />
<glyph unicode="!" horiz-adv-x="413" d="M108.5 74q4.5 41 38 70.5t76.5 29.5t71 -29.5t23.5 -70.5t-38 -71t-76.5 -30t-71 30t-23.5 71zM184 291q31 451 54 667l49 476h141l-49 -476q-10 -96 -32.5 -263t-41.5 -285l-18 -119h-103z" />
<glyph unicode="&#x22;" horiz-adv-x="569" d="M229 807q-23 197 23 627h123l-66 -627h-80zM428 807l66 627h122q-20 -190 -46.5 -347t-45.5 -219l-16 -61h-80z" />
<glyph unicode="#" horiz-adv-x="1382" d="M63 410l13 125h305l133 364h-264l12 125h295l150 410h129l-150 -410h379l149 410h129l-149 -410h274l-12 -125h-305l-133 -364h264l-12 -125h-297l-148 -410h-129l148 410h-379l-148 -410h-129l148 410h-273zM510 535h379l133 364h-379z" />
<glyph unicode="$" horiz-adv-x="976" d="M72 111l55 77q139 -88 319 -88h5l59 580q-340 131 -311 393q16 164 125.5 264.5t267.5 118.5l14 133h99l-15 -131q88 -4 168 -27.5t115 -44.5l35 -20l-52 -88q-125 57 -272 57h-6l-57 -538q199 -70 273.5 -170.5t57.5 -266.5q-16 -156 -129.5 -262t-287.5 -121l-17 -163 h-98l16 163q-117 6 -208 40t-124 65zM340 1083q-10 -94 37 -151.5t149 -100.5l54 496q-217 -39 -240 -244zM549 109q242 39 264 266q10 88 -36 153.5t-171 116.5z" />
<glyph unicode="%" horiz-adv-x="1724" d="M168 1030q23 201 142.5 313.5t269.5 112.5q147 0 242.5 -112.5t72.5 -313.5q-20 -199 -140 -311.5t-270 -112.5q-147 0 -242 111.5t-75 312.5zM244 0l1233 1434h151l-1231 -1434h-153zM301 1030q-31 -311 195 -311q236 0 266 311q33 311 -195 311q-104 0 -177 -75.5 t-89 -235.5zM977 397q20 199 140 312.5t269.5 113.5t243.5 -112.5t74 -313.5q-23 -199 -142.5 -311.5t-269 -112.5t-244 112.5t-71.5 311.5zM1110 397q-33 -311 195 -311q233 0 266 311.5t-197 311.5q-102 0 -175 -76t-89 -236z" />
<glyph unicode="&#x26;" horiz-adv-x="1275" d="M98 354q12 131 96.5 223.5t262.5 213.5q-143 213 -129 354q16 154 122.5 232.5t254.5 78.5q135 0 220 -71.5t72 -196.5q-12 -119 -97 -207t-277 -209q59 -84 174 -213l192 -207q94 152 113 330h104q-23 -248 -137 -414l195 -186l-64 -80q-74 39 -209 168 q-195 -197 -475 -197q-221 0 -328.5 101.5t-89.5 279.5zM231 356q-14 -131 71 -199.5t235 -68.5q227 0 374 162l-223 248q-104 123 -172 211q-137 -96 -206 -173.5t-79 -179.5zM461 1155q-14 -121 108 -305l59 41l57 40l49 35.5t47.5 40t35 38t32.5 43t18.5 43t11.5 51.5 q8 76 -45.5 117.5t-141.5 41.5q-211 0 -231 -186z" />
<glyph unicode="'" horiz-adv-x="329" d="M193 807l59 627h125l-72 -627h-112z" />
<glyph unicode="(" horiz-adv-x="532" d="M139.5 546.5q20.5 196.5 77.5 362.5t125 262.5t132.5 164t107.5 94.5l43 24l43 -61q-14 -10 -36 -32t-82.5 -99.5t-108.5 -166.5t-96 -237.5t-64 -310.5q-16 -174 -2 -310.5t48.5 -237.5t70.5 -166.5t65 -98.5l26 -33l-55 -61q-14 8 -38.5 26.5t-84 91t-101.5 165.5 t-66.5 260t-4 363.5z" />
<glyph unicode=")" horiz-adv-x="532" d="M-20 -299q12 10 34.5 31.5t82 99.5t108.5 167t97 237.5t65 310.5q16 174 0.5 310t-50 237.5t-70.5 167t-63 98.5l-28 33l55 61q14 -8 38.5 -26.5t85 -91t102.5 -166t66.5 -260.5t4 -363.5t-78.5 -362.5t-125.5 -262t-132.5 -163.5t-108 -94.5l-43 -24z" />
<glyph unicode="*" horiz-adv-x="772" d="M176 1094l10 112q117 0 240 -24l-104 221l102 57q41 -84 78 -221l149 221l92 -57q-57 -88 -161 -197h254l-11 -112q-119 0 -237 24l104 -221l-104 -55q-47 98 -76 219l-152 -219l-90 55q68 102 162 197h-256z" />
<glyph unicode="+" horiz-adv-x="1024" d="M98 553l13 125h405l43 407h131l-43 -407h406l-13 -125h-405l-43 -408h-131l43 408h-406z" />
<glyph unicode="," horiz-adv-x="333" d="M53 -178q74 66 99 151q-39 2 -64 31t-20.5 70t38 70.5t76.5 29.5t71 -29.5t23 -70.5q0 -53 -28 -121q-18 -45 -55 -89t-66 -65l-29 -22z" />
<glyph unicode="-" d="M90 471l12 125h615l-12 -125h-615z" />
<glyph unicode="." horiz-adv-x="331" d="M67.5 74q4.5 41 38 70.5t76.5 29.5q45 0 72 -29.5t22.5 -70.5t-37 -71t-77.5 -30q-43 0 -71 30t-23.5 71z" />
<glyph unicode="/" horiz-adv-x="804" d="M0 0l825 1434h129l-825 -1434h-129z" />
<glyph unicode="0" horiz-adv-x="1157" d="M156 715q41 381 183 561t390 180q250 0 355.5 -180t64.5 -561q-39 -379 -182.5 -560.5t-393.5 -181.5q-248 0 -352 180.5t-65 561.5zM305 715q-35 -330 37 -473.5t246 -143.5t274.5 143.5t134.5 473.5q35 332 -35.5 475t-244.5 143t-274.5 -143t-137.5 -475z" />
<glyph unicode="1" horiz-adv-x="550" d="M166 1202l10 98l338 134h84l-149 -1434h-136l136 1288z" />
<glyph unicode="2" horiz-adv-x="954" d="M61 0l13 125q12 119 94 227.5t192 191.5l221 162q110 79 190.5 174t90.5 193q12 133 -41 195.5t-219 62.5q-78 0 -161 -28.5t-128 -57.5l-45 -28l-43 86q20 16 56 41.5t146 68.5t214 43q199 0 292 -95t73 -282q-14 -127 -87 -230.5t-175 -178.5l-205 -149 q-104 -73 -198.5 -175t-135.5 -221h684l-12 -125h-816z" />
<glyph unicode="3" horiz-adv-x="995" d="M51 98l45 84q14 -10 43 -24.5t123 -39t195 -24.5q344 0 374 309q33 324 -258 324h-221l8 80l484 502h-621l13 125h788l-12 -125l-445 -459h8q47 0 94.5 -7t111 -35t108.5 -74t71.5 -133t14.5 -202q-20 -195 -159.5 -310.5t-346.5 -115.5q-119 0 -223.5 32t-149.5 63z" />
<glyph unicode="4" horiz-adv-x="1007" d="M82 403l14 125l631 930h145l-630 -930h508l43 426h131l-43 -426h141l-14 -125h-142l-41 -403h-131l41 403h-653z" />
<glyph unicode="5" horiz-adv-x="978" d="M72 98l51 84q8 -10 27.5 -24.5t97.5 -39t178 -24.5t178 37t121 94.5t64.5 112.5t27.5 108q37 340 -258 340q-78 0 -149.5 -21.5t-104.5 -43.5l-33 -21l-79 17l133 717h723l-13 -125h-604l-86 -457q90 55 234 55q182 0 294.5 -119.5t90.5 -332.5q-23 -201 -173.5 -341.5 t-353.5 -140.5q-119 0 -210 32t-124 63z" />
<glyph unicode="6" horiz-adv-x="1017" d="M140 432q-5 133 16 275q20 199 80.5 349t144.5 234t176 125t191 41q78 0 149.5 -28.5t103.5 -57.5l33 -29l-55 -75q-80 76 -219 75q-412 0 -477 -604l-4 -47h6q39 72 134 136.5t220 64.5q184 0 284.5 -121t77.5 -328q-23 -211 -163 -340t-322 -129q-139 0 -225 61.5 t-116 163t-35 234.5zM266 485q-4 -399 262 -399q125 0 225.5 92t116.5 264q16 150 -44 241t-175 91q-74 0 -137 -25.5t-104 -60.5t-74 -80t-47.5 -72.5t-22.5 -50.5z" />
<glyph unicode="7" horiz-adv-x="931" d="M178 1309l12 125h850l-12 -125l-559 -1309h-143l559 1309h-707z" />
<glyph unicode="8" horiz-adv-x="1054" d="M106 342q10 88 55.5 166t109 130t110.5 82t90 48q-123 74 -175 156t-40 200q14 139 125 235.5t297 96.5q182 0 274 -94t76 -244q-6 -63 -39 -122.5t-81 -103.5t-88 -72.5t-81 -49.5q162 -92 228.5 -185t52.5 -233q-18 -174 -149.5 -276.5t-350.5 -102.5 q-217 0 -323.5 99.5t-90.5 269.5zM238 358q-12 -119 56 -192.5t241 -73.5q324 0 352 260q10 113 -52.5 188.5t-236.5 157.5q-6 4 -23 13q-35 -14 -80.5 -40t-105 -70t-102.5 -108.5t-49 -134.5zM387 1124q-10 -100 51.5 -165.5t192.5 -129.5l2 -2h4q86 33 169 106t95 179 q12 113 -52.5 170t-182.5 57q-111 0 -189 -52t-90 -163z" />
<glyph unicode="9" horiz-adv-x="1017" d="M131 88l55 76q80 -76 220 -76q412 0 477 604l4 47h-6q-37 -72 -133.5 -136t-221.5 -64q-184 0 -283.5 119.5t-78.5 328.5q23 211 163 340t322 129q139 0 225.5 -61.5t116 -163t35.5 -234.5t-14 -274q-20 -199 -81 -349.5t-146 -234.5t-177 -125t-190 -41q-78 0 -149.5 29 t-104.5 57zM295 987q-14 -150 45 -241t174 -91q74 0 137.5 26t104.5 60.5t73.5 79.5t47 73t22.5 50q4 399 -262 399q-125 0 -224.5 -92t-117.5 -264z" />
<glyph unicode=":" horiz-adv-x="331" d="M67.5 74q4.5 41 38 70.5t76.5 29.5q45 0 72 -29.5t22.5 -70.5t-37 -71t-77.5 -30q-43 0 -71 30t-23.5 71zM154 879q2 41 36.5 70.5t77.5 29.5t71 -28.5t23 -71.5q-4 -41 -37.5 -71t-78.5 -30q-43 0 -69.5 30t-22.5 71z" />
<glyph unicode=";" horiz-adv-x="333" d="M53 -178q74 66 99 151q-39 2 -64 31t-20.5 70t38 70.5t76.5 29.5t71 -29.5t23 -70.5q0 -53 -28 -121q-18 -45 -55 -89t-66 -65l-29 -22zM154 879q2 41 36.5 70.5t77.5 29.5t71 -28.5t23 -71.5q-4 -41 -37.5 -71t-78.5 -30q-43 0 -69.5 30t-22.5 71z" />
<glyph unicode="&#x3c;" horiz-adv-x="1044" d="M90 481l10 103l1016 495l-14 -135l-842 -412l756 -411l-15 -135z" />
<glyph unicode="=" horiz-adv-x="1024" d="M76 332l12 123h942l-12 -123h-942zM121 772l14 125h942l-14 -125h-942z" />
<glyph unicode="&#x3e;" horiz-adv-x="1044" d="M39 -14l14 135l842 411l-756 412l15 135l909 -495l-10 -103z" />
<glyph unicode="?" horiz-adv-x="884" d="M156 1303q20 16 56 41.5t145.5 68.5t213.5 43q197 0 299.5 -108.5t81.5 -298.5q-12 -115 -63 -199t-117 -137l-131 -105q-66 -51 -117 -131t-61 -186h-111q12 111 49 194.5t83 130t101 93.5l100 85q46 38 81 102.5t43 145.5q14 137 -57.5 213t-219.5 76 q-78 0 -160.5 -28.5t-127.5 -57.5l-45 -28zM280.5 74q4.5 41 38 70.5t76.5 29.5t71 -29.5t23.5 -70.5t-38 -71t-76.5 -30t-71 30t-23.5 71z" />
<glyph unicode="@" horiz-adv-x="1748" d="M133 690q29 274 182.5 485t363.5 315.5t433 104.5q348 0 525.5 -190.5t144.5 -497.5q-31 -291 -199 -490.5t-321 -199.5q-27 0 -48.5 7t-48 32t-32 72t3.5 125q-4 -10 -12.5 -25.5t-38 -56.5t-64.5 -72t-93.5 -56.5t-121.5 -25.5q-131 0 -215 107.5t-62 314.5 q25 233 184.5 413.5t364.5 180.5q131 0 211 -72l13 47h120l-163 -716q-18 -57 -16.5 -109.5t44.5 -52.5q37 0 92.5 30.5t118 92t113.5 181.5t67 273q29 279 -135 432.5t-442 153.5q-123 0 -257 -49t-259 -142.5t-216 -253t-112 -358.5q-20 -190 28 -337.5t144 -231.5 t211 -126t242 -42q172 0 332.5 69.5t267.5 184.5l53 -53q-131 -152 -307 -230t-357 -78q-168 0 -310 54.5t-246.5 157t-155 266t-27.5 366.5zM666 649q-35 -319 170 -319q61 0 121.5 42t101.5 101t73.5 117.5t47.5 101.5l16 41l72 326q-66 68 -201 67q-158 0 -269.5 -143.5 t-131.5 -333.5z" />
<glyph unicode="A" horiz-adv-x="1165" d="M41 0l604 1434h131l348 -1434h-139l-104 434h-527l-182 -434h-131zM403 551h449l-164 676z" />
<glyph unicode="B" horiz-adv-x="1142" d="M102 0l150 1434h418q252 0 353 -96q87 -82 87 -214q0 -21 -2 -45q-8 -80 -39 -141t-69.5 -91t-75.5 -48.5t-62 -20.5l-24 -4v-6q12 -2 31.5 -6t69.5 -26.5t87 -56.5t61 -105q18 -53 19 -116q0 -21 -2 -44q-23 -205 -148 -309.5t-391 -104.5h-463zM244 125h334q88 0 143 8 t111.5 36t88 88t42.5 157q2 22 2 41q0 114 -70 171q-82 67 -231 66h-361zM315 817h318q135 0 232.5 68.5t109.5 193.5q2 19 2 37q0 96 -66 141q-78 53 -254 54h-288z" />
<glyph unicode="C" horiz-adv-x="1142" d="M156 702q18 172 67 306.5t114.5 217.5t148.5 136t163 73.5t164 20.5q104 0 203.5 -31.5t146.5 -64.5l47 -31l-49 -80q-139 82 -315 82q-479 0 -545 -629q-8 -72 -8 -135q0 -469 428 -469q96 0 185 23.5t130 46.5l43 25l33 -80q-18 -16 -54 -39t-153 -62t-243 -39 q-115 0 -210.5 37t-173 117t-110.5 227q-20 91 -20 202q0 69 8 146z" />
<glyph unicode="D" horiz-adv-x="1171" d="M102 0l150 1434h405q258 0 401 -183q113 -145 113 -398q0 -66 -8 -138q-37 -350 -217 -532.5t-438 -182.5h-406zM246 125h274q88 0 167 32.5t147.5 100.5t116.5 184.5t65 272.5q7 67 7 127q0 208 -84 321q-108 145 -294 146h-274z" />
<glyph unicode="E" horiz-adv-x="1007" d="M102 0l150 1434h835l-12 -125h-706l-54 -506h603l-15 -125h-602l-57 -553h714l-12 -125h-844z" />
<glyph unicode="F" horiz-adv-x="978" d="M102 0l150 1434h835l-12 -125h-706l-54 -508h600l-14 -125h-600l-70 -676h-129z" />
<glyph unicode="G" horiz-adv-x="1204" d="M156 702q20 203 88.5 355.5t165 235.5t198 123t206 40t203.5 -31.5t146 -64.5l47 -31l-47 -80q-141 82 -317 82q-215 0 -362.5 -153.5t-180.5 -475.5q-8 -73 -7 -136q0 -212 84 -323q110 -144 331 -145q137 0 276 74l60 561h131l-66 -627q-18 -14 -54 -36.5t-153 -59.5 t-243 -37q-115 0 -210.5 37t-173 117t-110.5 227q-20 91 -20 202q0 69 8 146z" />
<glyph unicode="H" horiz-adv-x="1218" d="M102 0l150 1434h129l-66 -633h754l66 633h131l-150 -1434h-131l70 676h-754l-70 -676h-129z" />
<glyph unicode="I" horiz-adv-x="333" d="M102 0l150 1434h129l-150 -1434h-129z" />
<glyph unicode="J" horiz-adv-x="462" d="M6 68q121 33 186.5 114.5t86.5 266.5l102 985h129l-102 -985q-8 -76 -28 -141.5t-60.5 -146.5t-120.5 -131t-189 -57z" />
<glyph unicode="K" horiz-adv-x="1079" d="M102 0l150 1434h129l-76 -723l684 723h166l-604 -637l528 -797h-164l-460 694l-170 -178l-54 -516h-129z" />
<glyph unicode="L" horiz-adv-x="987" d="M102 0l150 1434h129l-137 -1309h714l-12 -125h-844z" />
<glyph unicode="M" horiz-adv-x="1495" d="M102 0l150 1434h129l424 -1012l606 1012h131l-149 -1434h-131l118 1145l-530 -875h-119l-379 891l-121 -1161h-129z" />
<glyph unicode="N" horiz-adv-x="1245" d="M102 0l150 1434h145l637 -1225l129 1225h129l-149 -1434h-146l-639 1225l-127 -1225h-129z" />
<glyph unicode="O" horiz-adv-x="1325" d="M156 715q39 367 219 554t440 187t400 -186q110 -146 110 -404q0 -71 -8 -151q-39 -369 -218 -555.5t-439.5 -186.5t-401.5 187q-111 146 -111 404q1 71 9 151zM303 715q-8 -74 -8 -139q0 -213 83 -328q108 -150 296 -150q186 0 325.5 149.5t171.5 467.5q8 74 8 139 q0 213 -82 328q-108 150 -294 149q-188 0 -327.5 -149.5t-172.5 -466.5z" />
<glyph unicode="P" horiz-adv-x="1091" d="M102 0l150 1434h375q270 0 400 -105q112 -90 112 -258q0 -26 -2 -55q-23 -209 -173.5 -319.5t-424.5 -110.5h-240l-61 -586h-136zM311 711h240q90 0 155.5 10t132 41t106.5 94.5t50 159.5q3 25 3 48q0 62 -20 108q-28 62 -90.5 90t-124 37.5t-149.5 9.5h-239z" />
<glyph unicode="Q" horiz-adv-x="1339" d="M156 715q39 367 219 554t440 187t400 -186q110 -146 110 -404q0 -71 -8 -151q-31 -295 -156 -474.5t-311 -238.5l379 -260l-45 -61q-156 41 -525 292q-260 0 -401 187q-111 146 -111 404q1 71 9 151zM303 715q-8 -74 -8 -139q0 -213 83 -328q108 -150 296 -150 q186 0 324.5 149.5t170.5 467.5q8 75 8 140q0 213 -81 327q-106 150 -293 149q-188 0 -327.5 -149.5t-172.5 -466.5z" />
<glyph unicode="R" horiz-adv-x="1091" d="M102 0l150 1434h377q268 0 398 -105q112 -90 112 -258q0 -26 -2 -55q-35 -315 -353 -402l246 -614h-145l-236 590q-70 -4 -108 -4h-240l-61 -586h-138zM313 711h240q90 0 154.5 10t131 40t106.5 94.5t50 160.5q3 25 3 48q0 62 -20 108q-28 62 -89.5 90t-122.5 37.5 t-150 9.5h-239z" />
<glyph unicode="S" horiz-adv-x="1091" d="M72 106l49 87q186 -94 393 -95q381 0 412 273q1 13 1 24q0 89 -67 145q-76 62 -254 124q-59 20 -94 33.5t-86 36t-82 43t-64.5 52t-51 65.5t-27.5 79q-6 28 -7 59q0 19 3 39q20 182 158.5 283.5t346.5 101.5q106 0 210 -23.5t155 -46.5l51 -22l-37 -88q-160 55 -348 55 q-367 0 -393 -252q-1 -14 -1 -26q0 -43 15 -77q20 -44 67.5 -74t95.5 -49t120 -44q14 -4 20 -6q231 -80 330 -174q83 -79 83 -217q0 -26 -3 -54q-20 -180 -159.5 -282.5t-352.5 -102.5q-152 0 -272.5 34t-165.5 67z" />
<glyph unicode="T" horiz-adv-x="1067" d="M178 1309l12 125h986l-13 -125h-428l-137 -1309h-129l137 1309h-428z" />
<glyph unicode="U" horiz-adv-x="1196" d="M154 487l98 947h129l-98 -947q-4 -37 -4 -70q0 -141 69 -220q86 -98 260 -99q172 0 278.5 97.5t127.5 291.5l98 947h131l-98 -947q-14 -143 -72.5 -249.5t-141.5 -160.5t-167 -79t-170 -25t-164 25t-149.5 79t-106.5 161q-25 75 -25 169q1 38 5 80z" />
<glyph unicode="V" horiz-adv-x="1196" d="M150 1434h139l329 -1221l588 1221h140l-689 -1434h-118z" />
<glyph unicode="W" horiz-adv-x="1814" d="M150 1434h137l235 -1180l447 1044h147l230 -1044l481 1180h137l-584 -1434h-120l-240 1087l-465 -1087h-121z" />
<glyph unicode="X" horiz-adv-x="1126" d="M0 0l551 723l-389 711h157l322 -588h21l444 588h158l-537 -711l399 -723h-157l-342 616l-469 -616h-158z" />
<glyph unicode="Y" horiz-adv-x="1198" d="M150 1434h145l389 -750l518 750h146l-613 -881l-57 -553h-131l57 547z" />
<glyph unicode="Z" horiz-adv-x="1054" d="M41 0l12 125l932 1184h-778l12 125h936l-12 -125l-932 -1184h815l-12 -125h-973z" />
<glyph unicode="[" horiz-adv-x="534" d="M66 -342l186 1776h422l-12 -119h-293l-162 -1538h293l-13 -119h-421z" />
<glyph unicode="\" horiz-adv-x="804" d="M150 1434h129l526 -1434h-129z" />
<glyph unicode="]" horiz-adv-x="534" d="M-25 -342l13 119h291l161 1538h-293l13 119h422l-187 -1776h-420z" />
<glyph unicode="^" horiz-adv-x="716" d="M98 942l359 492h102l256 -492h-135l-186 358l-261 -358h-135z" />
<glyph unicode="_" horiz-adv-x="614" d="M-12 -125l12 125h614l-14 -125h-612z" />
<glyph unicode="`" horiz-adv-x="452" d="M150 1434h178l231 -410h-125z" />
<glyph unicode="a" horiz-adv-x="907" d="M115 410q25 238 155.5 403.5t323.5 165.5q84 0 159.5 -23.5t110.5 -46.5l33 -24l-92 -885h-100l-5 145q-63 -59 -152 -107t-169 -48q-270 0 -271 316q1 49 7 104zM240 410q-6 -53 -6 -97q0 -99 29 -148q42 -71 134 -71q143 0 310 178l59 562q-82 35 -160 34 q-145 0 -245.5 -129.5t-120.5 -328.5z" />
<glyph unicode="b" horiz-adv-x="933" d="M109 72l143 1362h125l-55 -521q94 66 235 66q184 0 289 -116q83 -92 83 -264q0 -44 -5 -93q-25 -236 -160 -382.5t-336 -146.5q-88 0 -168 24t-117 48zM240 123q82 -35 176 -35q158 0 260 109.5t123 308.5q4 36 3 68q0 132 -60 206q-75 92 -220 92q-121 0 -213 -79z" />
<glyph unicode="c" horiz-adv-x="811" d="M111 469q25 229 153.5 369.5t298.5 140.5q80 0 149.5 -20.5t98.5 -40.5l31 -23l-33 -76q-98 53 -227 53q-133 0 -231.5 -113.5t-117.5 -289.5q-4 -34 -3 -65q0 -128 61 -215q76 -108 211 -107q66 0 130 14.5t95 26.5l31 14l18 -76q-14 -10 -38.5 -23t-107.5 -37t-171 -24 q-170 0 -272 133q-82 106 -81 274q0 41 5 85z" />
<glyph unicode="d" horiz-adv-x="917" d="M105 265q-5 40 -5 81q0 45 6 92q55 539 486 539q115 0 192 -70l52 492h125l-146 -1399h-100l-4 143q-158 -168 -320 -168q-90 0 -153.5 39t-92.5 103.5t-40 147.5zM238 265q10 -77 55 -131t121 -54q135 0 305 194l55 527q-78 74 -186 73q-53 0 -92 -7t-85 -32.5 t-77 -70.5t-57.5 -128t-38.5 -198q-5 -48 -5 -91.5t5 -81.5z" />
<glyph unicode="e" horiz-adv-x="876" d="M109 467q25 231 167 371.5t318 140.5q154 0 231 -65q66 -54 66 -162q0 -20 -2 -41q-29 -262 -412 -262h-244q-3 -30 -3 -58q0 -134 74 -212q89 -93 216 -93q72 0 138.5 12.5t95.5 24.5l30 10l21 -72q-135 -84 -320 -84q-193 0 -297 131q-85 105 -84 275q0 40 5 84z M244 524h6q8 2 23.5 5t35 5.5l42.5 5.5l46 6q23 3 47.5 4t42.5 1q258 0 277 162q1 12 1 23q0 65 -40 100q-47 41 -143 41q-113 0 -207 -92.5t-131 -260.5z" />
<glyph unicode="f" horiz-adv-x="616" d="M-31 -395q111 31 166 116.5t76 278.5l88 846h-172l10 108h172l21 181q18 172 91 246.5t202 74.5q47 0 97 -19.5t75 -37.5l26 -19l-33 -71q-92 45 -170 45q-143 0 -165 -219l-21 -181h244l-10 -108q-141 0 -242 14l-90 -860q-4 -43 -8 -65.5l-12.5 -71.5t-20.5 -79 l-30 -73q-17 -43 -43.5 -69.5t-60.5 -54t-81 -43t-103 -17.5z" />
<glyph unicode="g" horiz-adv-x="933" d="M104 -360l35 75q94 -55 244 -55q287 0 319 320l9 63q-94 -66 -236 -66q-184 0 -289 116q-83 92 -83 265q0 44 6 93q25 236 159.5 382t335.5 146q88 0 168 -23.5t117 -46.5l35 -24l-97 -905q-18 -195 -124.5 -309.5t-299.5 -114.5q-88 0 -162.5 21.5t-105.5 41.5zM233 451 q-4 -36 -3 -69q0 -132 60 -206q75 -92 220 -92q121 0 213 80l70 670q-82 35 -177 34q-158 0 -260.5 -109t-122.5 -308z" />
<glyph unicode="h" horiz-adv-x="925" d="M102 0l150 1434h125l-64 -607q160 152 328 152q162 0 213 -91q39 -69 39 -182q0 -36 -4 -77l-66 -629h-125l66 629q4 39 4 71q0 75 -20 116q-29 58 -130 58q-145 0 -319 -180l-72 -694h-125z" />
<glyph unicode="i" horiz-adv-x="354" d="M115 0l98 954h125l-98 -954h-125zM253 1236q26 22 56.5 21.5t50 -22t15.5 -49.5q-2 -31 -25.5 -51.5t-54.5 -20.5t-51 21q-19 19 -19 45q0 33 28 56z" />
<glyph unicode="j" horiz-adv-x="399" d="M-82 -395q111 31 166 116.5t76 278.5l98 954h125l-98 -954q-6 -47 -10.5 -75.5t-16.5 -83t-26.5 -89.5t-42 -80t-62.5 -72.5t-87 -48t-116 -24.5zM270 1186q4 29 28 50t56 21q31 0 50.5 -21.5t15.5 -49.5q-2 -31 -25.5 -51.5t-54.5 -20.5q-33 0 -52.5 20.5t-17.5 51.5z " />
<glyph unicode="k" horiz-adv-x="854" d="M102 0l150 1434h125l-98 -930l454 450h154l-404 -399l351 -555h-152l-291 463l-129 -129l-35 -334h-125z" />
<glyph unicode="l" horiz-adv-x="376" d="M135 231q6 98 15 209q2 14 2 21l102 973h125l-103 -973q-18 -132 -18 -224q0 -21 1 -40q5 -102 60 -144l-22 -76q-90 10 -129 83q-34 63 -34 145q0 13 1 26z" />
<glyph unicode="m" horiz-adv-x="1431" d="M102 0l99 954h100l4 -139q135 164 293 164q109 0 163 -48t73 -147q143 195 315 195q164 0 212 -108q33 -73 33 -196q0 -58 -8 -126l-57 -549h-125l58 549q6 58 6 106q0 79 -17 132q-27 87 -123 87q-76 0 -137 -46t-141 -144l-72 -684h-125l62 588q5 44 5 82 q0 205 -142 204q-76 0 -138.5 -47t-140.5 -143l-72 -684h-125z" />
<glyph unicode="n" horiz-adv-x="937" d="M102 0l99 954h100l4 -143q158 168 322 168q166 0 226 -112q45 -83 45 -220q0 -46 -5 -98l-57 -549h-125l57 549q4 39 4 73q0 94 -29 161q-39 91 -137 91q-141 0 -309 -192l-70 -682h-125z" />
<glyph unicode="o" horiz-adv-x="976" d="M111 477q25 236 166 369t317 133q174 0 285 -133q90 -109 90 -287q0 -39 -4 -82q-25 -233 -166.5 -366.5t-317.5 -133.5q-174 0 -284 133q-90 108 -91 285q1 39 5 82zM240 477q-5 -43 -5 -81q0 -134 56 -211q72 -99 203 -99q135 0 228 99.5t114 291.5q4 41 4 79 q0 134 -58 213q-74 101 -200 101q-123 0 -222.5 -102.5t-119.5 -290.5z" />
<glyph unicode="p" horiz-adv-x="917" d="M55 -444l146 1398h100l4 -143q158 168 320 168q90 0 153.5 -39t92 -103.5t39.5 -147.5q5 -40 6 -81q0 -45 -7 -92q-55 -539 -485 -539q-115 0 -193 70l-51 -491h-125zM242 154q78 -74 186 -74q53 0 92 7t85 32.5t77 71t57.5 128t38.5 197.5q5 48 5 91.5t-5 81.5 q-10 77 -55 131t-121 54q-135 0 -305 -194z" />
<glyph unicode="q" horiz-adv-x="933" d="M109 451q25 236 159.5 382t335.5 146q88 0 168 -23.5t117 -46.5l35 -24l-140 -1329h-125l52 487q-94 -66 -236 -66q-184 0 -289 116q-83 92 -83 265q1 44 6 93zM233 451q-4 -36 -3 -69q0 -132 60 -206q75 -92 220 -92q121 0 213 80l70 670q-82 35 -177 34 q-158 0 -260.5 -109t-122.5 -308z" />
<glyph unicode="r" horiz-adv-x="651" d="M102 0l99 954h100q2 -16 3 -41.5t2 -94.5v-26q0 -48 -3 -69l-2 -21q18 47 49 86q135 178 381 179l-14 -133q-98 0 -179 -29t-126 -70t-76 -82t-41 -69l-10 -29l-58 -555h-125z" />
<glyph unicode="s" horiz-adv-x="806" d="M68 68l36 67q129 -49 269 -49q260 0 278 176q1 10 1 20q0 57 -42 87q-49 35 -174 67q-70 18 -115 35.5t-95 49.5t-71 79q-17 37 -17 83q0 13 1 28q14 135 118.5 201.5t256.5 66.5q72 0 143.5 -16.5t108.5 -32.5l37 -15l-31 -69q-115 29 -244 28q-252 0 -268 -157 q-2 -27 7 -47.5t22.5 -33.5t45.5 -27.5t51.5 -21.5t62.5 -20q18 -6 26 -8l91 -31q30 -10 74 -29.5t63.5 -39t41 -49t26.5 -68.5q3 -22 3 -46q0 -20 -2 -42q-14 -131 -120.5 -204t-254.5 -73q-102 0 -185 23t-114 45z" />
<glyph unicode="t" horiz-adv-x="702" d="M129 846l10 108h172l13 105q6 57 20 115.5t25 87.5l12 30h92l-37 -338h242l-10 -108q-143 0 -240 14l-59 -561q-4 -39 -5 -70q0 -71 23 -103q33 -46 100 -46q35 0 80 11t72 24l29 10l18 -72q-115 -76 -221 -76q-225 0 -225 250q0 34 4 72l57 547h-172z" />
<glyph unicode="u" horiz-adv-x="935" d="M145 410l56 544h123l-56 -544q-5 -42 -5 -81q0 -90 28 -155q39 -92 137 -92q141 0 309 192l70 680h125l-98 -954h-101q-4 74 -4 145q-158 -168 -321 -168q-268 0 -269 326q0 50 6 107z" />
<glyph unicode="v" horiz-adv-x="835" d="M98 954h127l221 -751l361 751h127l-457 -954h-104z" />
<glyph unicode="w" horiz-adv-x="1277" d="M98 954h121l152 -733l301 643h114l166 -643l303 733h121l-393 -954h-100l-174 670l-314 -670h-100z" />
<glyph unicode="x" horiz-adv-x="815" d="M0 0l377 494l-256 460h141l199 -356h16l273 356h141l-350 -460l274 -494h-145l-221 395l-304 -395h-145z" />
<glyph unicode="y" horiz-adv-x="835" d="M-16 -375l49 70q63 -39 121 -39q121 0 206 223l50 121h-84l-228 954h135l209 -876l363 876h129l-455 -1106q-123 -299 -329 -299q-105 0 -166 76z" />
<glyph unicode="z" horiz-adv-x="774" d="M41 0l10 111l615 731h-519l11 112h667l-10 -110l-614 -731h542l-10 -113h-692z" />
<glyph unicode="{" horiz-adv-x="612" d="M115 508l8 90q68 0 125 46t67 153l35 315q33 322 289 322h113l-11 -103h-98q-68 0 -109.5 -46t-54.5 -173l-30 -289q-8 -68 -28 -121t-42.5 -79.5t-44 -44t-35.5 -21.5l-14 -4q6 -2 14 -5t29.5 -20.5t36 -44t23.5 -80t3 -120.5l-31 -289q-12 -127 20 -173t99 -46h99 l-11 -103h-112q-256 0 -224 322l33 315q10 106 -35.5 152.5t-113.5 46.5z" />
<glyph unicode="|" horiz-adv-x="333" d="M86 -143l180 1720h129l-180 -1720h-129z" />
<glyph unicode="}" horiz-adv-x="612" d="M-23 -328l11 103h96q68 0 110 46t54 173l31 289q6 68 25.5 121t43 79.5t45 44t35.5 21.5l14 4q-6 2 -14 5t-29.5 20.5t-37 44t-24.5 80t-1 120.5l31 289q12 127 -20 173t-99 46h-98l10 103h112q256 0 224 -322l-35 -315q-10 -106 37 -152.5t114 -46.5l-8 -90 q-70 0 -127 -46t-67 -153l-33 -315q-33 -322 -289 -322h-111z" />
<glyph unicode="~" horiz-adv-x="1058" d="M92 498q100 160 270 159q100 0 254 -67q133 -61 224 -62q100 0 176 82l61 -43q-102 -160 -272 -159q-102 0 -252 67q-133 61 -223 62q-100 0 -176 -82z" />
<glyph unicode="&#xa9;" horiz-adv-x="1568" d="M135 715q25 233 146.5 405t291.5 254t363 82q311 0 496.5 -196.5t148.5 -544.5q-25 -227 -144.5 -399.5t-290.5 -257.5t-366 -85q-297 0 -488.5 200t-156.5 542zM225 715q-33 -324 130 -498t433 -174q172 0 319.5 71.5t253 227.5t128.5 373q33 319 -134 494t-425 175 q-164 0 -312.5 -70.5t-259 -227t-133.5 -371.5zM485 698q29 258 159 376t284 118q66 0 129 -23.5t94 -46.5l29 -24l-41 -62q-86 55 -199 56q-139 0 -226 -89.5t-110 -304.5q-20 -203 45.5 -289.5t212.5 -86.5q61 0 114.5 15t76.5 32l24 16l39 -63l-35 -28q-23 -17 -97.5 -45 t-156.5 -28q-160 0 -263.5 115.5t-78.5 361.5z" />
<glyph unicode="&#xad;" d="M90 471l12 125h615l-12 -125h-615z" />
<glyph unicode="&#xae;" horiz-adv-x="1568" d="M135 715q25 233 146.5 405t291.5 254t363 82q311 0 496.5 -196.5t148.5 -544.5q-25 -227 -144.5 -399.5t-290.5 -257.5t-366 -85q-297 0 -488.5 200t-156.5 542zM225 715q-33 -324 130 -498t433 -174q172 0 319.5 71.5t253 227.5t128.5 373q33 319 -134 494t-425 175 q-164 0 -312.5 -70.5t-259 -227t-133.5 -371.5zM535 242l98 934h231q174 0 259 -67t71 -204q-23 -207 -227 -262l157 -401h-110l-154 385q-16 -2 -53 -2h-127l-41 -383h-104zM688 719h117q266 0 287 186q10 106 -57.5 141t-190.5 35h-117z" />
<glyph unicode="&#x2000;" horiz-adv-x="796" />
<glyph unicode="&#x2001;" horiz-adv-x="1595" />
<glyph unicode="&#x2002;" horiz-adv-x="796" />
<glyph unicode="&#x2003;" horiz-adv-x="1595" />
<glyph unicode="&#x2004;" horiz-adv-x="530" />
<glyph unicode="&#x2005;" horiz-adv-x="397" />
<glyph unicode="&#x2006;" horiz-adv-x="264" />
<glyph unicode="&#x2007;" horiz-adv-x="264" />
<glyph unicode="&#x2008;" horiz-adv-x="198" />
<glyph unicode="&#x2009;" horiz-adv-x="317" />
<glyph unicode="&#x200a;" horiz-adv-x="88" />
<glyph unicode="&#x2010;" d="M90 471l12 125h615l-12 -125h-615z" />
<glyph unicode="&#x2011;" d="M90 471l12 125h615l-12 -125h-615z" />
<glyph unicode="&#x2012;" d="M90 471l12 125h615l-12 -125h-615z" />
<glyph unicode="&#x2013;" horiz-adv-x="1122" d="M90 471l12 125h1041l-13 -125h-1040z" />
<glyph unicode="&#x2014;" horiz-adv-x="1372" d="M90 471l12 125h1291l-13 -125h-1290z" />
<glyph unicode="&#x2018;" horiz-adv-x="327" d="M186 807q23 209 52.5 365.5t48.5 207.5l18 54h70l-66 -627h-123z" />
<glyph unicode="&#x2019;" horiz-adv-x="333" d="M236 807q-33 156 16 627h129l-66 -627h-79z" />
<glyph unicode="&#x201c;" horiz-adv-x="571" d="M186 807q23 209 52.5 365.5t48.5 207.5l18 54h70l-66 -627h-123zM428 807l66 627h124l-65 -627h-125z" />
<glyph unicode="&#x201d;" horiz-adv-x="565" d="M236 807q-33 156 16 627h129l-66 -627h-79zM428 807l66 627h118l-65 -627h-119z" />
<glyph unicode="&#x2022;" horiz-adv-x="655" d="M176 716.5q10 100.5 80 163t170 62.5t155.5 -62.5t45 -163t-79 -162.5t-168.5 -62t-156.5 62t-46.5 162.5z" />
<glyph unicode="&#x2026;" horiz-adv-x="1159" d="M67.5 74q4.5 41 38 70.5t76.5 29.5q45 0 72 -29.5t22.5 -70.5t-37 -71t-77.5 -30q-43 0 -71 30t-23.5 71zM481 74q4 41 38 70.5t77 29.5q45 0 71.5 -29.5t22.5 -70.5t-36.5 -71t-78.5 -30q-43 0 -70.5 30t-23.5 71zM895 74q4 41 38 70.5t77 29.5q45 0 71.5 -29.5 t22.5 -70.5t-37 -71t-78 -30q-43 0 -70.5 30t-23.5 71z" />
<glyph unicode="&#x202f;" horiz-adv-x="317" />
<glyph unicode="&#x205f;" horiz-adv-x="397" />
<glyph unicode="&#x20ac;" horiz-adv-x="1110" d="M55 535l39 98h152q4 45 8 69q4 53 8 78h-180l39 99h160q35 162 98 279.5t141 180t153 90t152 27.5q66 0 123.5 -13t92 -31.5t61 -37t37.5 -31.5l10 -14l-57 -74l-28 22q-17 13 -78.5 34.5t-127.5 21.5q-334 0 -432 -454h592l-39 -99h-569q-6 -25 -11 -78q-4 -25 -8 -69 h543l-39 -98h-506q0 -231 86 -334t258 -103q82 0 157 22.5t109 47.5l33 22l47 -77q-4 -6 -13 -15.5t-44 -33t-77 -42t-112.5 -34t-150.5 -15.5q-195 0 -316.5 132.5t-121.5 429.5h-189z" />
<glyph unicode="&#x2122;" horiz-adv-x="1204" d="M141 1350l9 84h479l-8 -84h-193l-55 -521h-97l56 521h-191zM623 829l63 605h94l183 -408l256 408h94l-64 -605h-94l45 418l-207 -325h-78l-153 331l-45 -424h-94z" />
<glyph unicode="&#xe000;" horiz-adv-x="955" d="M0 955h955v-955h-955v955z" />
<glyph unicode="&#xfb01;" horiz-adv-x="970" d="M731 0l98 954h125l-98 -954h-125zM869 1236q26 22 56.5 21.5t50 -22t15.5 -49.5q-2 -31 -25.5 -51.5t-54.5 -20.5t-51 21q-19 19 -19 45q0 33 28 56zM-31 -395q111 31 166 116.5t76 278.5l88 846h-172l10 108h172l21 181q18 172 91 246.5t202 74.5q47 0 97 -19.5 t75 -37.5l26 -19l-33 -71q-92 45 -170 45q-143 0 -165 -219l-21 -181h244l-10 -108q-141 0 -242 14l-90 -860q-4 -43 -8 -65.5l-12.5 -71.5t-20.5 -79l-30 -73q-17 -43 -43.5 -69.5t-60.5 -54t-81 -43t-103 -17.5z" />
<glyph unicode="&#xfb02;" horiz-adv-x="993" d="M751 231q6 98 15 209q2 14 2 21l102 973h125l-103 -973q-18 -132 -18 -224q0 -21 1 -40q5 -102 60 -144l-22 -76q-90 10 -129 83q-34 63 -34 145q0 13 1 26zM-31 -395q111 31 166 116.5t76 278.5l88 846h-172l10 108h172l21 181q18 172 91 246.5t202 74.5q47 0 97 -19.5 t75 -37.5l26 -19l-33 -71q-92 45 -170 45q-143 0 -165 -219l-21 -181h244l-10 -108q-141 0 -242 14l-90 -860q-4 -43 -8 -65.5l-12.5 -71.5t-20.5 -79l-30 -73q-17 -43 -43.5 -69.5t-60.5 -54t-81 -43t-103 -17.5z" />
<glyph unicode="&#xfb03;" horiz-adv-x="1587" d="M1348 0l98 954h125l-98 -954h-125zM1486 1236q26 22 56.5 21.5t50 -22t15.5 -49.5q-2 -31 -25.5 -51.5t-54.5 -20.5t-51 21q-19 19 -19 45q0 33 28 56zM585 -395q111 31 166 116.5t76 278.5l88 846h-172l10 108h172l21 181q18 172 91 246.5t202 74.5q47 0 97 -19.5 t75 -37.5l26 -19l-33 -71q-92 45 -170 45q-143 0 -165 -219l-21 -181h244l-10 -108q-141 0 -242 14l-90 -860q-4 -43 -8 -65.5l-12.5 -71.5t-20.5 -79l-30 -73q-17 -43 -43.5 -69.5t-60.5 -54t-81 -43t-103 -17.5zM-31 -395q111 31 166 116.5t76 278.5l88 846h-172l10 108 h172l21 181q18 172 91 246.5t202 74.5q47 0 97 -19.5t75 -37.5l26 -19l-33 -71q-92 45 -170 45q-143 0 -165 -219l-21 -181h244l-10 -108q-141 0 -242 14l-90 -860q-4 -43 -8 -65.5l-12.5 -71.5t-20.5 -79l-30 -73q-17 -43 -43.5 -69.5t-60.5 -54t-81 -43t-103 -17.5z" />
<glyph unicode="&#xfb04;" horiz-adv-x="1609" d="M1368 231q6 98 15 209q2 14 2 21l102 973h125l-103 -973q-18 -132 -18 -224q0 -21 1 -40q5 -102 60 -144l-22 -76q-90 10 -129 83q-34 63 -34 145q0 13 1 26zM585 -395q111 31 166 116.5t76 278.5l88 846h-172l10 108h172l21 181q18 172 91 246.5t202 74.5q47 0 97 -19.5 t75 -37.5l26 -19l-33 -71q-92 45 -170 45q-143 0 -165 -219l-21 -181h244l-10 -108q-141 0 -242 14l-90 -860q-4 -43 -8 -65.5l-12.5 -71.5t-20.5 -79l-30 -73q-17 -43 -43.5 -69.5t-60.5 -54t-81 -43t-103 -17.5zM-31 -395q111 31 166 116.5t76 278.5l88 846h-172l10 108 h172l21 181q18 172 91 246.5t202 74.5q47 0 97 -19.5t75 -37.5l26 -19l-33 -71q-92 45 -170 45q-143 0 -165 -219l-21 -181h244l-10 -108q-141 0 -242 14l-90 -860q-4 -43 -8 -65.5l-12.5 -71.5t-20.5 -79l-30 -73q-17 -43 -43.5 -69.5t-60.5 -54t-81 -43t-103 -17.5z" />
</font>
</defs>
</svg>
